Skip to main content

Reason For Leaving Live at High Noon Saloon on 2008-04-20






Collection ReasonForLeaving
Band/Artist Reason For Leaving
Venue High Noon Saloon
Location Madison WI USA

Source SBD + Audience Matrix
Lineage Neumann KM140's > Beyer MV100 > Zoom H2 @48k/24-bit + Allen & Heath GL3300 SBD > Sony PCM-M1 > DAT @48k/16-bit > Audacity > xACT > FLAC16
Taped by TAS aka morst
Transferred by TAS aka morst

Notes

Sunday, April 20, 2008

Four-Twenty Celebration

Copper Still Foundry performing the music of Drive By Truckers
Baghdad Scuba Review performing the music of The Beatles - http://www.archive.org/details/BSR2008-04-20.matrix
Jose And Sumlimes (aka Reason For Leaving) performing the music of Sublime

HNS house sound engineer - Gavin

Recording: Neumann KM140's (ORTF pair clamped to balcony railing FOB right side) > Beyer MV100 > Zoom H2 @48KHz/24-bit
+ Allen & Heath GL3300 SBD > Sony PCM-M1 > DAT @48KHz

Transfer:
DAT > Sony PCM-M1 > S/Pdif > Audiomedia III PCI card > Powermac G3/266 > Protools 4.1.1 > AIFF > Powermac G4 MDD/ Dual 1.42

WAV > USB > Powermac G4

Mix:
16-bit SBD AIFF + 24-bit audience WAV > Audacity 1.2.6
SBD AIFF > Change Speed plugin at .012% to match 24-bit audience WAV, files lined up by ear/eye, then the mix was output as WAV @44KHz/16-bit with triangle dither > AIFF > Audacity 1.2.6 (tracking in 1/75 second increments) > AIFF's > xACT 1.62 (flac level 8) > FLAC


Disc 1 (51:22.74)
Disc 2 (50:48.32)



SHNTOOL: length expanded size cdr WAVE problems fmt ratio filename
3:45.49 39805292 B --- -- ---xx JoseSumlimes2008-04-20-MTX-d1t01.flac
3:47.41 40139276 B --- -- ---xx JoseSumlimes2008-04-20-MTX-d1t02.flac
4:26.24 46978892 B --- -- ---xx JoseSumlimes2008-04-20-MTX-d1t03.flac
4:15.40 45076124 B --- -- ---xx JoseSumlimes2008-04-20-MTX-d1t04.flac
3:56.60 41771564 B --- -- ---xx JoseSumlimes2008-04-20-MTX-d1t05.flac
6:44.06 71279756 B --- -- ---xx JoseSumlimes2008-04-20-MTX-d1t06.flac
3:10.32 33591308 B --- -- ---xx JoseSumlimes2008-04-20-MTX-d1t07.flac
5:25.32 57405308 B --- -- ---xx JoseSumlimes2008-04-20-MTX-d1t08.flac
3:57.73 41978540 B --- -- ---xx JoseSumlimes2008-04-20-MTX-d1t09.flac
5:23.25 57036044 B --- -- ---xx JoseSumlimes2008-04-20-MTX-d1t10.flac
6:29.67 68777228 B --- -- ---xx JoseSumlimes2008-04-20-MTX-d1t11.flac
3:04.41 32554076 B --- -- ---xx JoseSumlimes2008-04-20-MTX-d2t01.flac
5:46.01 61036796 B --- -- ---xx JoseSumlimes2008-04-20-MTX-d2t02.flac
3:56.50 41748044 B --- -- ---xx JoseSumlimes2008-04-20-MTX-d2t03.flac
6:44.72 71434988 B --- -- ---xx JoseSumlimes2008-04-20-MTX-d2t04.flac
4:52.52 51631148 B --- -- ---xx JoseSumlimes2008-04-20-MTX-d2t05.flac
3:23.72 35978588 B --- -- ---xx JoseSumlimes2008-04-20-MTX-d2t06.flac
4:23.47 46503788 B --- -- ---xx JoseSumlimes2008-04-20-MTX-d2t07.flac
5:47.61 61354316 B --- -- ---xx JoseSumlimes2008-04-20-MTX-d2t08.flac
9:24.48 99602540 B --- -- ---xx JoseSumlimes2008-04-20-MTX-d2t09.flac
3:23.38 35898620 B --- -- ---xx JoseSumlimes2008-04-20-MTX-d2t10.flac
102:11.31 1081582236 B 0.5329 (21

-=-=-=-=-=-=-=-=-=-=-=-=-=-=-=-=-=-=-=-=-=-=-=-=-
Soundscape Preservation Society Founded 1991
http://www.iamtypingwithonefinger.com/SPS.html
-=-=-=-=-=-=-=-=-=-=-=-=-=-=-=-=-=-=-=-=-=-=-=-=-

Reviews

There are no reviews yet. Be the first one to write a review.
DOWNLOAD OPTIONS
Uploaded by
morst
on 5/11/2008
Views
235
Favorites
1
PEOPLE ALSO FOUND
Reason For Leaving
by Reason For Leaving
3,080
0
2
( 2 reviews )
Source: Neumann KM140's > Beyer MV100 > Sony SBM-1 (Oade mod) > Sony TCD-D100 DAT @48KHz
Reason For Leaving
by Reason For Leaving
792
0
0
Source: KM140 Matrix > DAT
Reason For Leaving
by Reason For Leaving
13,719
0
1
( 1 reviews )
Source: Neumann KM140's (approx ORTF, FOB) > Beyer MV100 (+20dB gain) > Sony SBM-1 (Oade mod) > 48KHz S/Pdif > Sony PCM-M1
Reason For Leaving
by Reason For Leaving
744
1
0
Source: Neumann KM140's > Beyer MV100 > Sony D-10 ProII (Oade mod)
Reason For Leaving
by Reason For Leaving
1,924
1
0
Source: Neumann KM140 > MV100 > SBM > DAT
Reason For Leaving
by Reason For Leaving
235
1
0
Source: SBD + Audience Matrix
Reason For Leaving
by Reason For Leaving
457
1
0
Source: Matrix of SBD + Neumann KM 140's > DAT
Reason For Leaving
by Reason For Leaving
540
1
0
Source: KM140’s > MV100 > SBM-1 > D100
Reason For Leaving
by Reason For Leaving
1,902
1
1
( 1 reviews )
Source: Allen & Heath GL2200 Control Room outputs (RCA) > SBM-1 (Oade mod) > TCD-D100> DAT @48KHz + Neumann KM140's > Beyer MV100> TCD-D10ProII (Oade mod)
Reason For Leaving
by Reason For Leaving
608
1
0
Source: KM140's > MV100 > SBM-1 (Oade Mod) > M1 > DAT